<svg xmlns="http://www.w3.org/2000/svg">
<defs>
<font id="Oldnewspaperfont" horiz-adv-x="1014" >
  <font-face 
    font-family="Old newspaper font"
    font-weight="400"
    font-stretch="normal"
    units-per-em="2048"
    panose-1="2 0 5 0 0 0 0 0 0 0"
    ascent="1638"
    descent="-410"
    x-height="958"
    cap-height="1363"
    bbox="-161 -435 3460 1949"
    underline-thickness="150"
    underline-position="-142"
    unicode-range="U+0020-U+201D"
  />
<missing-glyph horiz-adv-x="3481" 
d="M2668 1158l12 -4l72 -4l52 4l4 -20v-32h8q28 32 96 32q80 -35 80 -88v-16q0 -87 -96 -124h-8q-108 0 -108 124q6 29 20 48v12l-68 28h-12q-24 0 -24 -24v-24l12 -12q16 0 24 32h8q11 0 20 -40q-7 -52 -16 -52h-8q0 16 -16 24h-12l-12 -12v-24q0 -16 28 -52
q-24 -12 -84 -12h-4l-8 8v4l28 40l-4 92l4 32q-14 5 -24 36q0 12 36 24zM3340 1142l44 -12l44 8q32 -10 32 -36v-16l-4 -20h-12l-36 36h-28v-140q0 -16 24 -40v-4l-12 -12l-40 4h-12l-16 -4l-20 12q0 12 12 12l24 24v64l4 80l-4 4h-20q-44 -44 -56 -44v4l-4 16v12
q0 40 16 48l20 -4h24q20 0 20 8zM3204 1138q36 -9 36 -16v-12q-20 -30 -20 -120l4 -48l-16 -8q-60 31 -96 120l-20 8l-8 -24v-32q0 -43 24 -64v-8l-28 -24l-20 4l-20 -4l-12 36l24 20v72q0 19 -28 76q0 20 48 20q49 -24 92 -84q0 -28 20 -40h12v64q0 14 -20 40v8q0 9 28 16z
M1104 1122l20 -16l-4 -40v-120l4 -24q-4 -13 -16 -16q-32 12 -32 24l8 52v12q-8 40 -40 40h-8q-24 -10 -24 -32v-28q6 -52 48 -52v-4q-15 -12 -28 -12q-54 0 -64 88q32 64 72 64l52 -8v28l-24 32q0 12 36 12zM928 1118l12 -28l-4 -104l8 -76h-4l-16 -4h-20l-12 12
q12 0 12 16l4 148l-12 20v4q3 12 32 12zM764 1106q72 -30 72 -88q-20 -112 -100 -112q-88 0 -88 108q29 92 92 92h24zM1244 1106q58 -39 92 -108h8v68l-16 24v4l12 12h12q30 0 32 -12v-4q-16 -49 -16 -112l4 -32l-12 -12v-4q-46 18 -92 108l-12 4l-8 -24v-20q0 -37 20 -60
v-8l-24 -20l-20 4l-16 -4q-3 24 -8 24l20 24v68l-24 68q14 12 48 12zM2832 1038v-32q8 -68 64 -68h4l40 48v64q0 45 -44 52h-32q-18 0 -32 -64zM320 1090l140 -12h44q48 0 48 -84l-20 -224l4 -4l-4 -20v-180l4 -196q-21 -44 -44 -44h-300l-32 12l-56 -8h-44q-40 8 -40 40v12

<glyph glyph-name=".notdef" horiz-adv-x="3481" 
d="M2668 1158l12 -4l72 -4l52 4l4 -20v-32h8q28 32 96 32q80 -35 80 -88v-16q0 -87 -96 -124h-8q-108 0 -108 124q6 29 20 48v12l-68 28h-12q-24 0 -24 -24v-24l12 -12q16 0 24 32h8q11 0 20 -40q-7 -52 -16 -52h-8q0 16 -16 24h-12l-12 -12v-24q0 -16 28 -52
q-24 -12 -84 -12h-4l-8 8v4l28 40l-4 92l4 32q-14 5 -24 36q0 12 36 24zM3340 1142l44 -12l44 8q32 -10 32 -36v-16l-4 -20h-12l-36 36h-28v-140q0 -16 24 -40v-4l-12 -12l-40 4h-12l-16 -4l-20 12q0 12 12 12l24 24v64l4 80l-4 4h-20q-44 -44 -56 -44v4l-4 16v12
q0 40 16 48l20 -4h24q20 0 20 8zM3204 1138q36 -9 36 -16v-12q-20 -30 -20 -120l4 -48l-16 -8q-60 31 -96 120l-20 8l-8 -24v-32q0 -43 24 -64v-8l-28 -24l-20 4l-20 -4l-12 36l24 20v72q0 19 -28 76q0 20 48 20q49 -24 92 -84q0 -28 20 -40h12v64q0 14 -20 40v8q0 9 28 16z
M1104 1122l20 -16l-4 -40v-120l4 -24q-4 -13 -16 -16q-32 12 -32 24l8 52v12q-8 40 -40 40h-8q-24 -10 -24 -32v-28q6 -52 48 -52v-4q-15 -12 -28 -12q-54 0 -64 88q32 64 72 64l52 -8v28l-24 32q0 12 36 12zM928 1118l12 -28l-4 -104l8 -76h-4l-16 -4h-20l-12 12
q12 0 12 16l4 148l-12 20v4q3 12 32 12zM764 1106q72 -30 72 -88q-20 -112 -100 -112q-88 0 -88 108q29 92 92 92h24zM1244 1106q58 -39 92 -108h8v68l-16 24v4l12 12h12q30 0 32 -12v-4q-16 -49 -16 -112l4 -32l-12 -12v-4q-46 18 -92 108l-12 4l-8 -24v-20q0 -37 20 -60
v-8l-24 -20l-20 4l-16 -4q-3 24 -8 24l20 24v68l-24 68q14 12 48 12zM2832 1038v-32q8 -68 64 -68h4l40 48v64q0 45 -44 52h-32q-18 0 -32 -64zM320 1090l140 -12h44q48 0 48 -84l-20 -224l4 -4l-4 -20v-180l4 -196q-21 -44 -44 -44h-300l-32 12l-56 -8h-44q-40 8 -40 40v12
l4 60h-4l28 136l-12 32v76l12 160q0 41 -44 152l-4 56q0 19 44 24h100l40 -16l64 24l16 -16h4zM692 1006q0 -72 60 -72q36 29 36 52v44q-4 48 -40 48h-24q-32 -20 -32 -72zM1504 1062q28 0 56 -32l36 16q22 0 36 -84l12 -8h8l8 40l-4 44l32 12q16 -13 32 -104l4 -4h16l8 84
v16l20 4l20 -4q17 12 64 20q15 0 32 -24l32 16q16 -4 16 -16h12q0 20 36 20h4q52 -29 52 -88l-4 -4l4 -4l76 36v4q0 24 -16 24l-36 -8h-4l-8 8v8q0 17 56 24q52 -13 52 -52l-4 -76l4 -12l-4 -4h-4l-44 4q-6 -16 -28 -16h-8q-36 29 -36 52q-40 -48 -64 -48l-28 4
q-12 -15 -12 -28v-4l8 -32l-4 -4h-36l-12 8l12 148q-8 18 -16 20l-12 -4l-20 4h-24v-12q60 -9 60 -60q-39 -40 -68 -40q-19 0 -36 32q4 24 12 24h4l28 -32h8l16 16v16q-38 0 -60 48h-4q-10 0 -44 -100l-4 -4h-12q-31 0 -40 56h-12q-9 -56 -36 -56h-4q-26 0 -36 56
q-17 44 -24 44q-20 -19 -100 -40v-8q8 -24 32 -24h36v-16l-40 -8q-68 28 -68 72q12 80 72 80zM2392 1062q36 0 64 -48v-4q-3 -21 -96 -44v-8q8 -24 32 -24h36v-16l-36 -8q-33 0 -64 48h-8q-37 -52 -64 -52l-28 4q-12 -15 -12 -28v-4l8 -32l-4 -4h-36l-12 12l12 144l-12 28
q13 28 32 28q16 -4 16 -16h12q0 20 36 20h4q18 -6 52 -52q21 56 68 56zM2480 1058h4q15 -12 28 -12l20 12h12q10 -2 20 -28q-7 -8 -40 -8q-20 -21 -20 -64l16 -32v-8q-4 -12 -24 -12h-16q-20 0 -24 16q20 62 20 84l-16 40v8zM1480 1014q15 -12 36 -12h8v4q0 28 -28 28
q-16 -4 -16 -20zM2368 1014q15 -12 36 -12h8v4q0 28 -28 28q-16 -4 -16 -20zM1932 994v-24q0 -30 40 -44q19 0 24 44v40l-16 16h-16q-32 0 -32 -32zM2220 994v-24q0 -30 40 -44q19 0 24 44v40l-16 16h-16q-32 0 -32 -32zM264 970h-40l-24 -12q-4 12 -24 12q-14 0 -36 -188
l8 -16q-8 -18 -8 -52v-264l64 -44q13 -36 20 -36h4q12 56 52 56l96 -16q35 15 36 24v4l-4 4l28 136l-12 32v88l12 164q0 112 -92 112zM2060 962v-8q0 -28 28 -28h12q12 3 12 32v4l-12 12h-16q-24 -2 -24 -12zM1496 870q10 0 28 -48l4 -4l4 -12h-4l-20 -20v-52q0 -24 24 -24
l4 4v-12q-6 -16 -28 -16q-36 5 -36 36v52q0 15 -16 36zM2072 870q12 0 24 -44l12 -12l20 4h4l16 -16v-32l8 -68q16 7 16 28v44l-4 28l12 8h12l12 -8h12l24 16q40 0 40 -64v-60l-20 -4q-20 3 -20 12q12 4 12 24v24q0 31 -20 40h-4q-24 -11 -24 -28l4 -72l-4 -4h-20l-24 8
l-20 -8l-32 4l-32 -4q-28 12 -28 36v64h-32q-17 0 -24 -56l16 -28v-4q-2 -12 -28 -12l-64 12q-24 -16 -36 -16t-36 36q0 28 68 44v8q0 20 -8 20l-36 -8h-4l-8 8v4q0 15 52 24q44 -19 44 -48l-4 -60h8l12 64v4q-12 15 -12 28q0 10 16 12l20 -12q68 21 68 48zM2512 870
q10 0 28 -48l4 -4l4 -12h-4q-20 -6 -20 -28v-44q0 -24 24 -24l4 4v-12q-6 -16 -28 -16q-36 3 -36 32h-4q-32 -32 -76 -32q-40 0 -64 32q6 16 12 16h4q30 -36 52 -36q44 12 44 24v20q0 15 -100 44l-8 32q20 40 56 40h36q32 0 32 -32h12zM1192 866h8l8 -8v-8l-8 -8h-8l-4 12z
M1352 866q28 0 28 -64h4l44 8q32 -36 32 -116l-4 -12h-36l-4 4h-4q8 34 8 88l-12 8h-12q-28 -14 -28 -68l8 -24q-40 -6 -40 -28q-36 -28 -64 -28l-12 4q-32 -10 -32 -32q0 -36 16 -36q20 0 20 8q40 -22 40 -48q-8 -64 -52 -64q-52 9 -52 20v24l4 40h-8v-20q-15 -37 -36 -60
h-12v8h-4l76 184v20l-4 4v4l-4 -4h-8l-28 4v4l12 88l-4 4h-28q-17 0 -24 -56l16 -28v-4q-4 -12 -24 -12h-8q-14 0 -24 12q16 48 16 76l-4 4h-4q-56 -140 -84 -140q-24 10 -24 28l4 16h4l32 -24q12 15 12 28v16q0 17 -40 100v4l12 12h16q9 0 20 -64l20 -8v12q0 60 32 60
q13 0 28 -12q13 0 28 12l16 -4l16 4h4l16 -16v-28q0 -72 12 -72l8 32v36q0 28 44 48l20 -4l44 4l4 -4l4 16l-12 20v12zM2128 866h8l8 -8v-8l-8 -8h-8l-4 12zM2676 866h8l8 -8v-8l-8 -8h-8l-4 12zM1804 862l32 -8v-4q-20 -57 -20 -92v-12q0 -23 16 -48v-4l-20 -4h-20
q-21 0 -24 12q20 0 20 92h-8q-12 0 -40 -96h-8v-4q-21 0 -40 88l-4 4h-12v-36l12 -56l-8 -8h-20q-21 0 -28 16q13 0 24 56v28l-12 64l12 8h24q32 0 48 -100h16q34 100 48 100zM2372 814q0 -17 96 -40l8 -20h12v32q-21 42 -64 56l-16 4q-32 0 -36 -32zM1568 834q24 -8 24 -16
v-4q-4 -12 -24 -12h-8l-12 12v4q2 8 20 16zM808 822q35 -4 60 -28l28 20l24 -16q3 12 28 20q44 0 52 -76q0 -28 -52 -56l-24 4q-11 0 -16 -32l8 -24l-4 -4h-28l-12 12l8 132h-8q0 -66 -56 -88q-64 15 -64 64v24h-20q-15 12 -28 12q-24 0 -24 -28v-16q0 -32 32 -32h28v-4
q-18 -20 -48 -20q-44 12 -44 76q0 38 64 56q44 -8 44 -28h4q33 32 48 32zM2612 822l32 -16h8l16 12h12l16 -16v-32l8 -68q16 7 16 28v44l-4 28l12 8h12l12 -8h12l24 16q40 0 40 -64v-60l-20 -4q-20 3 -20 12q12 4 12 24v24q0 31 -20 40h-4q-24 -11 -24 -28l4 -72l-4 -4h-20
l-24 8l-24 -8l-24 4v4l8 72h-8l-80 -32q8 -24 32 -24h28v-8q-4 -12 -24 -12h-4q-60 15 -60 48l-4 16q15 68 64 68zM2904 822l32 -16h8l20 12l20 -12q13 0 28 12h4l20 -20v-4q0 -7 -36 -12q-16 -24 -16 -52l16 -28v-4q-4 -12 -24 -12h-8q-14 0 -24 12l16 68h-8l-80 -32
q8 -24 32 -24h28v-8q-4 -12 -24 -12h-4q-64 17 -64 64q15 68 64 68zM1256 726v-8h12q60 -5 60 -16q16 3 16 28l-4 20l4 36v20l-32 -64q-18 -16 -56 -16zM2084 786v-52q0 -20 16 -24q19 0 24 76l-24 16zM2592 778q15 -12 36 -12v4q0 22 -20 28q-16 -4 -16 -20zM2884 778
q15 -12 36 -12v4q0 22 -20 28q-16 -4 -16 -20zM788 774v-16q0 -46 20 -52h8q24 12 24 36l-4 48h-32zM916 774v-36q0 -32 32 -32h4q16 5 16 36v24q0 24 -24 24q-21 0 -28 -16zM1260 790l-4 -20v-12l32 -12q16 14 16 28q-4 16 -24 16h-20zM1568 774h4l8 -8l-4 -20h-20l-8 8v16
zM1868 738v-8q0 -24 24 -24h16l4 20v8l-8 12zM1244 678v-4l16 -16h24q20 0 24 16q-6 20 -28 20q-31 0 -36 -16zM1176 666h8l20 -12q-1 -15 -40 -44q-44 -136 -60 -140h-12v8h-4q78 188 88 188zM664 618q28 0 28 -52h8v-4l32 8q20 -19 28 -92q-4 -16 -24 -16h-8l-4 4h-4l4 60
v12l-8 8q-32 -4 -32 -36v-20l4 -20l-32 -8l-4 4v8l12 16l-4 28v12l4 56l-8 24v4h8v4zM792 618h8q6 0 24 -44h4q32 26 32 44h8q10 0 24 -52l-16 -16v-52q0 -12 16 -12l12 4l4 48l-8 12q0 8 20 24l20 -12l16 12h16q36 -20 36 -52q0 -36 -44 -56l-20 4l-12 -16v-4l4 -28l-4 -4
h-20l-12 12v24l4 20l-32 -8q-28 0 -28 40v44l-16 16h-4l-16 -16v-52q0 -12 24 -12v-4q-8 -16 -24 -16q-32 0 -32 40v44l-12 20zM1332 618l4 -4v-16h-12v12zM1384 618h8q10 0 24 -52l-16 -16v-52q0 -12 24 -12v-4q-6 -16 -28 -16q-28 0 -28 40v44l-12 20zM1524 618
q18 -8 20 -16v-4l-20 -28v-8l4 -4l-4 -4v-48q0 -14 16 -32q-16 -8 -44 -8l-4 12l8 24l-8 64q11 52 32 52zM1792 618h8q8 0 24 -52l-16 -16v-52l12 -12q16 4 16 20h12q0 -12 16 -20h8l8 8v12q-44 14 -44 44q11 28 48 28q18 -8 20 -16v-8l-8 -8h-28v-4q36 -22 36 -32v-16
q-23 -28 -44 -28q-24 7 -24 12l-32 -12q-28 0 -28 40v44l-12 20zM1032 590q20 -5 20 -12v-12l-20 -4l-12 4v12zM1320 578q18 -8 20 -16v-4q0 -63 8 -84l-12 -8h-4q-14 0 -24 12l12 72l-12 12v4zM1600 578q39 0 44 -48q0 -44 -48 -64q-45 0 -52 60q0 43 56 52zM2108 578
q39 0 44 -48q0 -45 -48 -64q-43 0 -52 56v16q20 40 56 40zM1724 574q28 0 28 -52v-44l-8 -8h-4q-20 0 -20 8l8 24v24q0 22 -16 28h-4l-16 -16v-64l-8 -8h-8l-20 4l8 44v12l-4 40l4 4h4l24 -8zM2012 574h8q28 0 28 -28l-12 -8h-4q-15 12 -28 12q-16 -4 -16 -24v-12
q0 -28 28 -28h20v-4q0 -9 -40 -16q-36 12 -36 68q0 28 52 40zM2292 574q25 0 36 -44l-4 -36v-4l8 -12v-8l-8 -8h-20l-12 12l4 4v60q0 10 -16 12q-20 -6 -20 -28v-60l-20 -4h-4l-8 8l8 60v4q0 24 -24 24h-8q-16 -34 -16 -64l4 -20l-4 -4h-4l-20 4l4 60l-4 36l4 4h12
q8 0 8 -12h12l16 12h8q13 0 28 -12h8zM1232 518v-20l12 -12h20q16 5 16 36v20l-16 16h-12q-20 -9 -20 -40zM936 538v-24q0 -32 32 -32q12 15 12 36v12q0 20 -16 24q-28 -5 -28 -16zM1576 542v-32q3 -24 12 -24h12l16 16v40l-8 8h-24zM2084 542v-32q3 -24 12 -24h12l16 16v40
l-8 8h-24zM1032 542l12 -4v-12l-12 -12q-16 6 -16 12v12zM1452 530h12q24 -2 24 -12q-4 -12 -24 -12l-36 8v4q4 12 24 12zM1940 498l8 -16l-4 -12h-20l-4 12q2 11 20 16zM808 438l12 -20l-4 -40v-8l4 -60l-4 -4h-16l-4 4h-4l4 20v76l-4 28zM848 438q12 0 12 -24h4l-4 -28
v-16l4 -60l-4 -4h-16l-4 4h-4l4 20v80l-4 20zM1944 438h12l12 -12l-4 -48v-24l4 -40l-8 -8q-24 8 -24 16l8 32q0 24 -24 32q-18 -8 -20 -16v-32q12 -20 24 -20v-8l-16 -4q-22 0 -40 52l-52 -16q8 -18 16 -20h28v-8l-20 -4h-4q-34 0 -44 48h-4q-7 0 -32 -56h-4q-11 0 -40 72
l-16 4h-4q-16 -6 -16 -28v-20l8 -12v-8l-20 -4h-8l-12 8l12 52l-8 8q0 -20 -56 -28v-12q4 -12 24 -12h16v-8l-20 -4h-4q-18 0 -36 20l-40 -24q-22 0 -28 20l12 16q8 -18 16 -20h4l8 8v12q-11 0 -40 20q-34 -16 -52 -16v-12q4 -12 24 -12h16v-8l-20 -4h-4q-31 0 -44 44l4 24
h-16q-16 -6 -16 -28v-20l8 -12v-8l-20 -4h-8l-12 8q12 33 12 56l-8 24v4h4l32 -4l16 4l12 -12q24 16 40 16l32 -16q26 16 44 16q16 -4 16 -16h12q18 16 36 16l24 -12h4l12 8l32 -4l4 4h4l24 -4h20q9 -60 20 -60q12 0 16 60h4l24 -8q24 16 40 16q9 0 36 -24l40 24l20 -8l12 4
v4q0 13 -12 28zM712 434h4q9 -3 48 -120l-20 -4q-20 0 -20 8l4 20l-20 16h-20l-8 -8v-12l8 -12q-4 -12 -24 -12h-4l-8 8q47 114 60 116zM996 434h12v-16h-12v16zM1124 434q12 -4 12 -24v-20h4l32 4q24 -32 24 -84l-12 -8h-12l-12 8l8 56l-16 8q-11 -3 -20 -20v-40
q-42 -44 -72 -44q-36 7 -36 32q11 92 28 92q60 3 60 20l-8 16l4 4h16zM1228 434h4l20 -36v-4l-12 -16v-44l8 -8h12q2 16 12 16q8 -18 16 -20h4l8 8v12q-36 0 -36 36v4q10 20 40 20q16 -6 16 -12v-16h-28v-8q18 0 32 -28q-18 -32 -36 -32l-32 8l-24 -8q-24 0 -24 80l-8 8
q21 39 28 40zM696 386v-8l8 -8h4l8 8v12l-8 8zM996 402l16 -12v-20l4 -60l-4 -4h-16l-12 12l8 56v4h-24q-16 -6 -16 -28v-12l8 -28h-4l-16 -4h-8l-12 8q12 33 12 56l-8 24v4h4l24 -4zM1464 386l-8 -12l12 -8h12v4q-3 12 -16 16zM1604 386l-8 -12l12 -8h12v4q-3 12 -16 16z
M1828 386v-8h-4l4 -12h20v8l-12 12h-8zM1052 374v-12l12 -12h8q12 0 12 16q-4 16 -24 16zM1104 374q0 -13 -32 -44l32 -12l8 12l-4 44h-4zM1536 374v-8l28 -8v16h-28zM1044 302v-8l8 -8h24l12 8q-4 16 -24 16h-12z" />
    <glyph glyph-name=".null" horiz-adv-x="0" 
 />
    <glyph glyph-name="nonmarkingreturn" horiz-adv-x="508" 
 />
    <glyph glyph-name="space" unicode=" " horiz-adv-x="508" 
 />
    <glyph glyph-name="space" unicode="&#xa0;" horiz-adv-x="508" 
 />
    <glyph glyph-name="exclam" unicode="!" horiz-adv-x="434" 
d="M264 1527h53q132 -55 132 -117l-53 -93l26 -116q-39 0 -132 -234v-24l27 -23q-43 -373 -158 -373l-80 186l26 164h-26l26 23v70l-52 70l26 23v24l-79 256v117zM198 352q74 -18 139 -135q-28 -217 -139 -217q-168 63 -168 108l28 82h-28q0 102 168 162z" />
    <glyph glyph-name="quotedbl" unicode="&#x22;" horiz-adv-x="682" 
d="M150 1689q70 0 70 -175h35l-35 -105h-105l-70 70q22 210 105 210zM569 1689h35l70 -245v-35h-70l-140 140z" />
    <glyph glyph-name="quotesingle" unicode="'" horiz-adv-x="682" 
d="M-26 1864q134 -181 134 -233h-30v-30q75 -21 75 -87l-30 -234l-119 59q-165 110 -165 408v30q8 81 120 116h15v-29z" />
    <glyph glyph-name="parenleft" unicode="(" horiz-adv-x="758" 
d="M623 1888h57v-57q-283 -242 -283 -963v-283q0 -437 226 -963l-56 -57h-57q-510 407 -510 1416q209 611 623 907z" />
    <glyph glyph-name="parenright" unicode=")" horiz-adv-x="758" 
d="M154 1806q511 -333 511 -1075q0 -613 -563 -1075l-51 51h-51q307 616 307 1126l-205 922z" />
    <glyph glyph-name="plus" unicode="+" horiz-adv-x="1026" 
d="M522 924q132 0 398 -97q0 -139 -221 -139q0 -27 -155 -27h-66l-332 69h-22v124l88 55h199l111 -13v28zM522 743q0 -27 66 -27h22v14zM363 793q0 132 97 398q138 0 138 -221q28 0 28 -155v-66l-69 -332v-22h-125l-55 88v199l14 111h-28zM543 793q28 0 28 66v22h-14z" />
    <glyph glyph-name="comma" unicode="," horiz-adv-x="557" 
d="M261 284h51q78 0 156 -207q-86 -287 -259 -415h-52v156l-52 362z" />
    <glyph glyph-name="hyphen" unicode="-" horiz-adv-x="670" 
d="M228 577h276l103 -101q-34 -101 -206 -101h-138l-241 67v34q34 101 206 101z" />
    <glyph glyph-name="hyphen" unicode="&#xad;" horiz-adv-x="670" 
d="M228 577h276l103 -101q-34 -101 -206 -101h-138l-241 67v34q34 101 206 101z" />
    <glyph glyph-name="period" unicode="." horiz-adv-x="557" 
d="M348 285l39 -40v-197l-158 -40l-79 119v118z" />
    <glyph glyph-name="slash" unicode="/" horiz-adv-x="914" 
d="M892 1852q29 -114 68 -114h46v46l23 -23h23q0 -244 -206 -297v45q-38 0 -69 -160h-22l-23 23l-275 -663l23 -114l-68 -69h-23l23 -23v-23l-23 -23v-23l23 -22l-69 -23v-23h46v-23l-46 -46l-23 23q0 -114 -46 -114q-45 0 -45 -137l-23 22h-23v-22l23 -23l-160 -46l-46 114
q79 241 160 343v23l-23 23q143 177 229 480l297 595q0 163 92 206q0 68 137 68z" />
    <glyph glyph-name="zero" unicode="0" horiz-adv-x="854" 
d="M474 1423h43l259 -345l43 -474q-176 -604 -345 -604h-129q-345 264 -345 819q0 527 474 604zM216 949v-345q0 -334 215 -432q115 0 173 690l-130 389h-86q-172 -71 -172 -302z" />
    <glyph glyph-name="one" unicode="1" horiz-adv-x="757" 
d="M434 1461q73 0 122 -358l-41 -159q0 -684 204 -795q0 -119 -163 -119l-204 40l-244 -40l-41 40v119q244 0 244 875l-244 119v159z" />
    <glyph glyph-name="two" unicode="2" 
d="M403 1491h121q403 -80 403 -403q-462 -645 -564 -645v-121h40l484 121l40 -201q-29 -202 -121 -202h-161l-363 -40q-201 25 -201 242q8 103 443 443l80 242v161q0 209 -120 242h-81q-81 0 -121 -323h-121l-161 162q178 322 403 322z" />
    <glyph glyph-name="three" unicode="3" 
d="M255 1528h212q467 -42 467 -340l-255 -339v-43q191 0 255 -382v-42q-228 -382 -510 -382q-180 0 -424 212v170l170 170h85q85 0 85 -128l-43 -212l43 -42h169q170 69 170 297v42q0 81 -297 297v85l85 85h42l43 -42h42l85 127l-127 255h-128l-42 -170h-170l-85 85v170z
" />
    <glyph glyph-name="four" unicode="4" 
d="M659 1626h88q0 -923 264 -923v-88l-176 -219v-88l132 -176v-88h-88v-44l-264 88l-88 -88l-131 132v88h87l88 132q0 175 -527 175l-44 44v44q61 237 659 1011zM308 791l44 -44h44l131 132v264h-44q-114 0 -175 -352z" />
    <glyph glyph-name="five" unicode="5" 
d="M406 1543h203l81 -81v-122h-203l-122 -81l-81 81l-81 -284h81l122 81q528 -185 528 -569q-64 0 -162 -365l-447 -203q-325 128 -325 365v82l122 121q108 0 203 -203l-41 -121h41l40 -41h41q132 0 244 365l-163 366l-284 -122q-162 61 -162 122v325q0 284 365 284z" />
    <glyph glyph-name="six" unicode="6" 
d="M638 1423q213 -24 213 -231l-128 -115h-42q0 199 -128 231q-255 -24 -255 -116v-269l255 38q383 -49 383 -499q0 -193 -383 -462q-340 0 -553 577q0 685 468 808zM305 740v-522l217 -44q175 0 175 523v43l-175 174h-43z" />
    <glyph glyph-name="seven" unicode="7" horiz-adv-x="884" 
d="M245 1386h489l122 -122q-285 -785 -285 -1019q0 -212 -123 -245h-122l-81 82v81q19 377 326 734q0 173 -163 285l-286 -204h-122l41 286l-41 40z" />
    <glyph glyph-name="eight" unicode="8" horiz-adv-x="846" 
d="M281 1446h121q311 0 401 -201v-241l-160 -201v-40q160 -169 160 -321q-146 -325 -441 -442l-362 281v241q0 145 161 322v40q-121 147 -121 281v80zM241 924l121 -80h80q161 65 161 281v80l-81 80h-80q-201 -101 -201 -361zM161 562q0 -307 160 -361h121q120 40 120 241
v201l-80 80h-40q-216 0 -281 -161z" />
    <glyph glyph-name="nine" unicode="9" horiz-adv-x="936" 
d="M437 1431q375 0 477 -556q-90 -466 -556 -875h-80q-278 199 -278 318l80 159q198 -65 198 -238h159l80 79v119q0 80 -398 159q-119 248 -119 438q132 397 437 397zM278 994v-80q25 -238 120 -238h79q91 0 119 199q-22 397 -119 397h-40q-159 -65 -159 -278z" />
    <glyph glyph-name="colon" unicode=":" horiz-adv-x="547" 
d="M255 1124h49l160 -80l-16 -16v-33l16 -15q0 -43 -80 -81l-48 16l-97 -32h-80l-48 112q42 129 144 129zM352 691q4 -97 32 -97l-32 -48l16 -16v-32q-48 0 -48 -48l-81 16l-32 -32l-32 32q-36 0 -80 128q32 0 32 81l16 -16z" />
    <glyph glyph-name="semicolon" unicode=";" horiz-adv-x="539" 
d="M217 1135h51l173 -86l-18 -17v-35l18 -17q0 -46 -87 -86l-51 17l-104 -34h-86l-51 120q45 138 155 138zM323 680q4 -213 31 -213l-31 -106l16 -36v-71q-47 0 -47 -106l-79 35l-31 -70l-31 70q-34 0 -78 284q31 0 31 177l16 -35z" />
    <glyph glyph-name="semicolon" unicode="&#x37e;" horiz-adv-x="539" 
d="M217 1135h51l173 -86l-18 -17v-35l18 -17q0 -46 -87 -86l-51 17l-104 -34h-86l-51 120q45 138 155 138zM323 680q4 -213 31 -213l-31 -106l16 -36v-71q-47 0 -47 -106l-79 35l-31 -70l-31 70q-34 0 -78 284q31 0 31 177l16 -35z" />
    <glyph glyph-name="equal" unicode="=" horiz-adv-x="1079" 
d="M538 1206q123 0 371 -90q0 -129 -206 -129q0 -26 -144 -26h-62l-309 65h-20v116l82 51h185l103 -13v26zM533 867q0 -26 62 -26h20v14zM516 885q124 0 371 -91q0 -128 -206 -128q0 -26 -144 -26h-62l-308 64h-21v116l82 51h185l103 -12v26z" />
    <glyph glyph-name="question" unicode="?" horiz-adv-x="742" 
d="M274 1333l145 -17v17q118 0 290 -272l19 -85q0 -134 -345 -408q0 -76 -91 -119h-36l-36 34q0 178 109 306l108 170q0 123 -127 153q-42 -146 -145 -187h-18q-145 21 -145 119q36 289 272 289zM282 270h36l109 -102q-26 -170 -127 -170q-109 40 -109 68v17q28 187 91 187z
" />
    <glyph glyph-name="A" unicode="A" horiz-adv-x="1333" 
d="M703 1406h74q296 -948 481 -1295l-37 -37h-370l-74 74l74 111v111l-222 148h-222l-74 -74v-222q148 0 148 -74l-370 -148l-111 222q133 3 555 1073zM481 740l111 -74h37q111 0 111 148l-37 185h-74q-74 0 -148 -259z" />
    <glyph glyph-name="B" unicode="B" horiz-adv-x="1219" 
d="M122 1423l610 -163v41q325 -128 325 -366l-81 -244v-81q171 0 203 -285q-117 -325 -610 -325l-488 41v40l122 163v813l-203 244zM407 976q0 -244 284 -244q203 56 203 284v41l-203 163q-284 0 -284 -244zM407 529v-122q0 -219 162 -285h122q219 0 285 163v203
q-66 163 -285 163h-40q-244 -26 -244 -122z" />
    <glyph glyph-name="C" unicode="C" horiz-adv-x="1281" 
d="M689 1378q486 0 486 -324l-81 -81q-315 243 -446 243q-364 -253 -364 -324v-81l40 -41l-40 -122q0 -392 405 -445h81q148 0 365 162h40v-81q-244 -284 -567 -284q-608 312 -608 608q0 520 365 689z" />
    <glyph glyph-name="D" unicode="D" horiz-adv-x="1438" 
d="M229 1447l495 -76v38q647 -139 647 -647q0 -541 -762 -762q-609 26 -609 152l152 191v419l38 381l-152 152v38q0 87 191 114zM381 1028v-685l152 -153q571 0 571 572v76q0 232 -266 419h-38l-153 -38l-114 38q-152 -38 -152 -229z" />
    <glyph glyph-name="E" unicode="E" horiz-adv-x="1151" 
d="M302 1423l371 -38l38 38l37 -38h74l186 38l112 -154v-115l-38 -193h-37q-196 270 -372 270h-111l-186 -39v-192l37 -192h74l224 230h37l37 -192v-38l-37 -270h-37q-136 116 -261 116h-37v-346q37 -116 223 -116h149l297 308l38 -38h37q-47 -462 -409 -462l-595 38
l-37 -38h-37l-112 38v116q186 27 186 115v539l-37 38l37 39v230q0 77 -112 77l-37 39v115z" />
    <glyph glyph-name="F" unicode="F" horiz-adv-x="1079" 
d="M205 1435l503 -36l287 36l35 -36v-287l-71 -72q0 72 -180 72l-107 108h-216l-71 -72v-215l71 -72q144 72 144 215h36q107 -22 107 -287q-22 -287 -107 -287q-46 180 -108 180h-72l-71 -72v-144q0 -132 179 -287v-35l-251 -36h-323v71q179 166 179 252l-35 502l35 179
q-143 59 -143 251z" />
    <glyph glyph-name="G" unicode="G" horiz-adv-x="1479" 
d="M723 1408l228 -76h305l38 -152q-49 -191 -114 -191q-231 229 -381 229h-76q-457 0 -457 -609q157 -457 419 -457h190l152 152v38q0 128 -114 267v38l267 38q228 -38 228 -114q-114 0 -190 -457l-571 -114q-647 161 -647 761q0 435 723 647z" />
    <glyph glyph-name="H" unicode="H" horiz-adv-x="1326" 
d="M997 1318q214 -36 214 -107l-143 -178v-641q0 -147 178 -285l-391 -107l-107 36v71l142 178v249q-35 107 -213 107t-321 -178v-142q178 -190 178 -285h-427l-107 106q142 54 142 107v713h-106v71h71v35l-71 107v36l71 71h142q178 -9 178 -71l-71 -321v-35l107 -107h36
l213 36l36 -36h36l106 36v320l-142 36v71q0 83 249 107z" />
    <glyph glyph-name="I" unicode="I" horiz-adv-x="592" 
d="M287 1363q215 -84 215 -143q-143 -217 -143 -610h36l-36 -36v-287l179 -215l-430 -72l-108 36v72q143 151 143 287l-35 394l35 179l-143 287z" />
    <glyph glyph-name="J" unicode="J" horiz-adv-x="657" 
d="M319 1303h284l71 -77v-38q-89 -105 -106 -460l35 -38q-50 -690 -248 -690h-107q-248 134 -248 307l35 115h142l71 -77v-38l-71 -115v-77q249 0 249 422q0 651 -178 651v38z" />
    <glyph glyph-name="K" unicode="K" horiz-adv-x="1326" 
d="M332 1303q217 -37 217 -109l-109 -145v-253h73l362 253v73q-109 0 -109 72q36 109 217 109h181l109 -109l-507 -398v-72q183 -340 579 -615l-109 -109l-180 36l-254 -36l-36 36v36l109 145v36q-83 176 -290 326h-72l-109 -109v-108q0 -131 145 -290v-36l-109 -36l-253 36
l-36 -36h-36l-145 109v36l181 36l36 326l-36 615l-72 72v72z" />
    <glyph glyph-name="L" unicode="L" horiz-adv-x="1128" 
d="M140 1326l315 -36h35v-143q-105 0 -105 -72v-72l-35 -573q77 -251 175 -251v36l35 -36h106q315 57 315 323h35l105 -108q-35 -358 -175 -358l-491 -36l-455 72v36l140 179v36q0 813 -140 895v72z" />
    <glyph glyph-name="M" unicode="M" horiz-adv-x="1700" 
d="M1418 1341l224 -74v-75q-125 -99 -186 -596q0 -366 149 -521l-38 -38h-409l-75 75l149 149v112l37 447l-37 37h-37q-83 0 -298 -745l-37 -37h-75q-111 0 -261 670l-37 37h-112v-298l149 -484h-372l-112 112q224 111 224 708l-112 447v37h372q112 0 224 -596l37 -149
l37 -37h38q103 0 298 707q136 112 260 112z" />
    <glyph glyph-name="N" unicode="N" horiz-adv-x="1296" 
d="M265 1324q563 -350 563 -629l132 -132l33 33v364q0 116 -132 232v33q0 75 165 99q232 -33 232 -99v-33q-132 -118 -132 -762l33 -165l-33 -99h-100q-463 368 -463 629l-166 132l-66 -166q0 -529 166 -529v-66q0 -57 -166 -100v-66l-99 66h-33l-100 -66l-66 199v66
q133 0 133 99v464l-166 364v66z" />
    <glyph glyph-name="O" unicode="O" horiz-adv-x="1258" 
d="M714 1321q500 -183 500 -500v-143q0 -423 -500 -678q-571 0 -571 250q-118 0 -143 500q203 535 536 535zM286 714q0 -535 392 -535h36l214 285v322q0 357 -357 357q-226 0 -285 -429z" />
    <glyph glyph-name="P" unicode="P" horiz-adv-x="1120" 
d="M323 1318h293q439 -62 439 -329q0 -402 -622 -476l-37 -37v-73q0 -132 147 -293v-73l-257 -37h-183l-73 73l146 220v73h-36l36 256v257q0 122 -109 256v37q59 146 256 146zM396 805l37 -109h219q147 75 147 183q-37 219 -110 219h-73q-220 0 -220 -293z" />
    <glyph glyph-name="Q" unicode="Q" horiz-adv-x="1326" 
d="M750 1349q0 -72 216 -108l252 -397l37 -216q-74 -330 -289 -648v-108l72 -72l217 180h108v-36q-98 -239 -217 -288h-144q-180 100 -180 288h-108q-684 223 -684 756v72q134 577 720 577zM292 1079q29 -786 225 -786l224 74l225 -74q75 146 75 412q0 422 -337 486h-225z
" />
    <glyph glyph-name="R" unicode="R" horiz-adv-x="1214" 
d="M494 1378v-71h283q318 -46 318 -318l-212 -247q100 -530 318 -530q-60 -177 -177 -177q-318 99 -318 565h-70l-106 -70l-71 70h-70v-282l176 -212q0 -106 -141 -106l-35 35h-36l-35 -35q-318 35 -318 106v35q177 137 177 283v565q0 118 -106 247v71zM389 1095v-141
q22 -212 105 -212q389 70 389 353l-283 106q-211 -22 -211 -106z" />
    <glyph glyph-name="S" unicode="S" horiz-adv-x="1085" 
d="M426 1318h427l116 -116v-194h-77q-186 176 -388 232q-310 -95 -310 -232q0 -189 736 -310l155 -272q0 -356 -542 -426v39l-39 -39h-39q-465 78 -465 310l78 78h38q221 -283 388 -310q349 104 349 193v155q0 143 -737 311l-77 155v155q172 271 387 271z" />
    <glyph glyph-name="T" unicode="T" horiz-adv-x="1169" 
d="M430 1361l286 -72l287 36l143 -107v-287l-107 -36q-90 251 -287 251h-72v-895l180 -179l-72 -72l-287 36l-143 -36l-107 36v71l215 144v644l35 144l-35 107h-144q0 -81 -286 -286l-36 35v72q7 358 72 358l322 -36l36 36v36z" />
    <glyph glyph-name="U" unicode="U" horiz-adv-x="1303" 
d="M358 1326l215 -72v-107q-143 -18 -143 -108v-716q58 -144 251 -144q358 0 358 681v72l-179 286q0 72 215 108l215 -72v-71l-107 -144v-322q0 -510 -359 -717h-430q-251 134 -251 323v35l36 502l-179 394z" />
    <glyph glyph-name="V" unicode="V" horiz-adv-x="1258" 
d="M437 1318l73 -109l-109 -182l218 -656h110l182 728h-37l-72 73v73l182 37h182l73 -73v-37q-292 -315 -292 -728v-110q-127 0 -218 -328l-37 -36h-109q-135 0 -437 1057q-146 0 -146 109v36q0 100 437 146z" />
    <glyph glyph-name="W" unicode="W" horiz-adv-x="1415" 
d="M755 1393q121 0 215 -1003l36 -56h108l72 780l-36 167l36 56h215v-56q0 -208 -251 -1002l-36 -279h-180q-90 0 -179 557h-72l-108 -557h-252q-221 1032 -323 1114q13 150 180 223q191 0 215 -724l144 -279l72 502l-36 445q180 0 180 112z" />
    <glyph glyph-name="X" unicode="X" horiz-adv-x="1350" 
d="M497 1461q71 -487 198 -487q69 0 199 433h99q298 -34 298 -162v-55q-397 -238 -397 -541q447 -396 447 -595h-50l-198 -54q-298 0 -298 271l-149 162h-50q-112 0 -199 -379h-347v108l397 433q0 301 -397 487l-50 54v217z" />
    <glyph glyph-name="Y" unicode="Y" horiz-adv-x="989" 
d="M181 1393h78l78 -62v-146q72 -333 285 -333v63q0 422 182 478h78l77 -62v-42q-394 -679 -440 -832q118 -332 285 -332l26 -21v-42q-317 -62 -545 -62l-52 62v21q156 155 156 250v145q0 230 -389 769v21q0 125 181 125z" />
    <glyph glyph-name="Z" unicode="Z" horiz-adv-x="1124" 
d="M104 1318l590 -35l312 35l69 -104v-35q-728 -886 -728 -971h243l34 35l35 -35h104l278 278h69l35 -104q0 -382 -451 -382h-243l-35 35l-34 -35h-105q-255 0 -277 104v69q0 128 624 798l104 139l-104 35q-324 0 -485 -243l-104 173z" />
    <glyph glyph-name="backslash" unicode="\" horiz-adv-x="1027" 
d="M288 1729q89 -41 89 -199l288 -577q83 -293 222 -465l-22 -22v-23q79 -99 155 -332l-45 -111l-155 44l22 23v22h-22l-22 -22q0 133 -44 133q-45 0 -45 110l-22 -22l-44 45v22h44v22l-66 22l22 22v22l-22 23v22l22 22h-22l-67 66l22 111l-266 643l-22 -22h-22
q-30 155 -66 155v-44q-200 52 -200 288h22l22 22v-44h45q38 0 66 111q133 0 133 -67z" />
    <glyph glyph-name="a" unicode="a" horiz-adv-x="854" 
d="M534 996q287 -121 287 -369l-41 -411l41 -164h-41l-329 41q0 -123 -164 -123q-132 0 -287 287q0 123 246 247l41 -42v-41q-123 0 -123 -82v-82l123 -123h205l42 205v41l-83 82h-41l-41 -41h-41l-41 41v42l247 82l-42 205h-82l-246 -82l-82 82q0 186 452 205z" />
    <glyph glyph-name="b" unicode="b" horiz-adv-x="995" 
d="M0 1401h240q40 -520 160 -520q40 120 240 120h40q281 -240 281 -441q-107 -560 -521 -560l-240 80h-160l-40 120l80 1001zM280 440v-120l80 -160h200q149 0 201 480q-78 183 -161 201h-160q-110 0 -160 -401z" />
    <glyph glyph-name="c" unicode="c" horiz-adv-x="854" 
d="M485 1011q324 -82 324 -162v-162l-162 -40l-121 121h-162l-121 -121v-323l161 -162h203l40 40h40l41 -40v-41l-324 -121q-404 0 -404 647q0 187 485 364z" />
    <glyph glyph-name="d" unicode="d" horiz-adv-x="1040" 
d="M854 1423h40l122 -81l-40 -488v-407l40 -406l-40 -41h-82l-203 122l81 325v204l-203 203q-218 0 -284 -163v-244q0 -325 325 -325v-41l-81 -81h-204q-325 185 -325 569q0 200 447 447l366 -81v203l-162 204v40z" />
    <glyph glyph-name="e" unicode="e" horiz-adv-x="909" 
d="M489 1019q249 0 408 -326q0 -163 -652 -285v-82l163 -163h81l204 41l41 -41v-41l-41 -40l-122 -41v-41q-571 126 -571 530q90 489 489 489zM285 734q149 -123 286 -123h40v123l-122 122h-81z" />
    <glyph glyph-name="f" unicode="f" horiz-adv-x="559" 
d="M393 1393l143 -143v-36l-215 -250v-71h36l-36 -250v-393l179 -179l-286 -71l-214 36v71q107 131 107 250l-71 500q63 536 357 536z" />
    <glyph glyph-name="g" unicode="g" horiz-adv-x="899" 
d="M868 1034l38 -37v-38q-138 -488 -225 -562l-187 -74h-262v-75q674 0 674 -300q0 -238 -450 -337h-37q-412 63 -412 300l112 524l-37 262q150 300 412 300l150 -38zM307 809l-38 -187v-75q107 0 187 -112q171 72 188 150v112l-113 112h-224zM157 -89l112 -150h300l112 112
v75l-112 112h-150q-201 0 -262 -149z" />
    <glyph glyph-name="h" unicode="h" horiz-adv-x="1041" 
d="M77 1378h76l191 -38l39 -460q268 0 268 77q344 0 344 -957l-38 -38l-192 38l-114 -38l76 612q-49 192 -115 192q-306 -60 -306 -536l77 -230h-77l-268 -38l-38 38v77l153 153l-38 191v153l38 574l-115 115z" />
    <glyph glyph-name="i" unicode="i" horiz-adv-x="427" 
d="M235 1408l78 -78v-78l-39 -40v-39l-118 39v118zM235 1017l117 -117l-39 -274l78 -587l-39 -39h-117l-196 39l117 665q0 117 -117 117l-39 39v40q39 117 235 117z" />
    <glyph glyph-name="j" unicode="j" horiz-adv-x="510" 
d="M296 1371h147v-74l-110 -111h-37v185zM407 1001l73 -258l-73 -333l36 -185l-36 -258h36q-99 -246 -221 -296h-37q-185 111 -185 259q259 74 259 258v148l-37 37l37 37v296l-148 185q23 110 296 110z" />
    <glyph glyph-name="k" unicode="k" horiz-adv-x="989" 
d="M280 1399l40 -200v-560l120 -120l119 200v200l240 40l120 -40q0 -64 -320 -240v-40q0 -184 360 -559l-80 -80l-40 40l-40 -40h-120q-80 0 -120 360h-239v-200l40 -40v-40l-320 -80h-40l80 320v839l-40 200l40 40h200z" />
    <glyph glyph-name="l" unicode="l" horiz-adv-x="397" 
d="M158 1423q158 -23 158 -316l-39 -475h39l-39 -118l79 -474l-40 -40h-316v119h79l40 1067l-119 118l40 40l118 39v40z" />
    <glyph glyph-name="m" unicode="m" horiz-adv-x="1569" 
d="M122 974q123 0 123 -122l40 -41h41q172 163 326 163l204 -163h41q172 163 326 163q285 -49 285 -367v-163l-41 -163l123 -204v-81l-204 -41h-82l-40 41h-41l41 407v286l-82 81h-122l-163 -163v-407l40 -204l-40 -41h-286v41l82 367v326l-122 122h-123q-149 0 -203 -611
l81 -204h-244l-41 41h-41l82 326v366l-82 123z" />
    <glyph glyph-name="n" unicode="n" horiz-adv-x="981" 
d="M595 1004q297 -27 297 -297v-261l38 -372l-38 -37h-223l-74 75l112 111v37l-38 37l38 38v148q0 244 -149 335q-154 -51 -223 -186v-186l37 -446h-298l-74 74v38q112 136 112 260v372l-75 111l112 112h74l149 -112z" />
    <glyph glyph-name="o" unicode="o" horiz-adv-x="921" 
d="M340 1019h75q439 0 491 -340v-113q0 -347 -378 -566q-528 87 -528 491q0 325 340 528zM264 566q28 -415 151 -415q264 0 264 340v37l-37 265h-265q-113 -38 -113 -227z" />
    <glyph glyph-name="p" unicode="p" horiz-adv-x="1010" 
d="M632 1003q356 -168 356 -553q-92 -316 -356 -435h-158l-39 39q-158 -31 -158 -316l79 -79v-79h-356l79 1067l-79 79v119l119 118h118q79 0 79 -118h79q0 158 237 158zM316 647v-316l198 -198h79q103 0 158 317v237l-119 118h-39q-213 0 -277 -158z" />
    <glyph glyph-name="q" unicode="q" horiz-adv-x="1024" 
d="M441 974h37l220 -110l110 110h73q110 0 110 -147l-73 -146l36 -330l-36 -440l110 -257l-367 -73l-110 37v36q0 74 110 74l37 36v220l-37 37v37l-293 -37q-183 0 -330 476q0 477 403 477zM221 607q27 -439 147 -439h183q96 0 147 293q-53 330 -147 330h-73
q-206 0 -257 -184z" />
    <glyph glyph-name="r" unicode="r" horiz-adv-x="692" 
d="M150 1025l187 -123h38l150 123h37l150 -164v-82h-225q-130 0 -187 -451l150 -246l-75 -82h-188q-187 0 -187 82l150 574l-150 246q0 62 150 123z" />
    <glyph glyph-name="s" unicode="s" horiz-adv-x="702" 
d="M359 1004h179q74 -16 143 -179l-71 -108l-323 36v-108q347 0 394 -358q-134 -215 -394 -287q-287 36 -287 251q54 143 108 143h35q0 -215 216 -251l107 144v72q-430 99 -430 430v36q0 107 323 179z" />
    <glyph glyph-name="t" unicode="t" horiz-adv-x="674" 
d="M264 1406h131q21 -284 220 -483q-220 0 -220 -220v-439l88 -88l176 44q-85 -201 -176 -220h-88q-263 0 -263 264v483l-132 176v87q264 253 264 396z" />
    <glyph glyph-name="u" unicode="u" horiz-adv-x="1059" 
d="M248 1045l83 -414l-42 -165v-165l83 -83h165l166 165v331l-42 290l42 41h206l42 -207v-496l83 -248l-42 -41h-41l-331 41l-331 -124l-206 248v579l-83 124q41 124 248 124z" />
    <glyph glyph-name="v" unicode="v" horiz-adv-x="993" 
d="M245 969l122 -41v-204l122 -448h82q122 0 122 448v204l163 41l122 -122h41l-489 -897h-41q-113 0 -367 774q-122 0 -122 82v122h204z" />
    <glyph glyph-name="w" unicode="w" horiz-adv-x="1415" 
d="M785 958q126 0 224 -690l37 -38h112l75 536l-37 115l37 39h224v-39q0 -143 -261 -689l-38 -192h-186q-94 0 -187 383h-75l-112 -383h-262q-230 709 -336 766q14 103 187 154q198 0 224 -499l150 -191l74 345l-37 306q187 0 187 77z" />
    <glyph glyph-name="x" unicode="x" horiz-adv-x="1010" 
d="M369 996q53 -332 147 -332l148 295h258l37 -184q-295 -96 -295 -332q332 -259 332 -406h-37l-148 -37q-221 0 -221 184l-111 111h-36q-111 0 -111 -221l-184 -74l-111 37v74l295 295q0 205 -295 332l-37 37v147z" />
    <glyph glyph-name="y" unicode="y" horiz-adv-x="868" 
d="M271 1014h34l101 -75l-34 -38v-38q0 -318 203 -415h34q0 566 203 566l102 -37v-114q-110 -133 -508 -1094l-203 -151q-203 88 -203 264l68 113l203 -226q135 61 135 264v113q0 164 -338 717q34 151 203 151z" />
    <glyph glyph-name="z" unicode="z" horiz-adv-x="727" 
d="M102 1020l110 -38l405 38l110 -38v-75q-138 -294 -441 -643l74 -75h36q107 0 331 189l37 -38v-113l-147 -227l-37 38h-37l-220 -38q-368 93 -368 151q405 544 405 680l-331 -38v189h73v38z" />
    <glyph glyph-name="bar" unicode="|" horiz-adv-x="500" 
d="M478 1828q58 -78 -16 -218l-16 -644q-64 -299 -23 -515l-30 -9l-10 -20q23 -125 -19 -367l-91 -76l-117 111l30 10l11 19l-20 11l-30 -10q63 118 24 139q-40 21 12 118l-30 -9l-18 60l11 20l39 -21l10 20l-48 50l30 9l10 20l-9 30l10 20l30 9l-19 10l-28 90l72 88l67 692
l-30 -9l-20 10q47 151 14 169l-20 -40q-152 140 -41 349l19 -11l30 9l-21 -39l40 -21q33 -17 110 67q118 -62 87 -121z" />
    <glyph glyph-name="dieresis" unicode="&#xa8;" horiz-adv-x="787" 
d="M191 1372l93 -92v-46l-93 -93l-92 93v46zM468 1372h93l92 -92v-139l-185 -46l-46 139z" />
    <glyph glyph-name="acute" unicode="&#xb4;" horiz-adv-x="1024" 
d="M653 1612l163 -163q0 -162 -569 -325q112 335 406 488z" />
    <glyph glyph-name="circumflex" unicode="&#x2c6;" horiz-adv-x="1024" 
d="M473 1461q265 -66 265 -331l-67 -66h-529v66z" />
    <glyph glyph-name="caron" unicode="&#x2c7;" horiz-adv-x="1024" 
d="M301 1435l182 -91l274 46v-46q-88 -208 -183 -228h-91q-165 86 -228 274z" />
    <glyph glyph-name="quoteright" unicode="&#x2019;" horiz-adv-x="682" 
d="M150 1689q70 0 70 -175h35l-35 -105h-105l-70 70q22 210 105 210zM569 1689h35l70 -245v-35h-70l-140 140z" />
    <glyph glyph-name="quotedblleft" unicode="&#x201c;" horiz-adv-x="682" 
d="M150 1689q70 0 70 -175h35l-35 -105h-105l-70 70q22 210 105 210zM569 1689h35l70 -245v-35h-70l-140 140z" />
    <glyph glyph-name="quotedblright" unicode="&#x201d;" horiz-adv-x="682" 
d="M150 1689q70 0 70 -175h35l-35 -105h-105l-70 70q22 210 105 210zM569 1689h35l70 -245v-35h-70l-140 140z" />
  </font>
</defs>
</svg>
